#TITLE:TSUPSEUDOGAMUSH;
#SUBTITLE:;
#ARTIST:Family Farce;
#TITLETRANSLIT:;
#SUBTITLETRANSLIT:;
#ARTISTTRANSLIT:;
#CREDIT:;
#BANNER:TSUPSEUDOGAMUSH-pg.png;
#BACKGROUND:TSUPSEUDOGAMUSH-bg.png;
#LYRICSPATH:;
#CDTITLE:NG.PNG;
#MUSIC:TSUPSEUDOGAMUSH.mp3;
#OFFSET:0.000;
#SAMPLESTART:51.200;
#SAMPLELENGTH:13.000;
#SELECTABLE:YES;
#DISPLAYBPM:99999.000;
#BPMS:0.000=150.060,31.500=789789802496.000,43.500=150.060,44.000=300.140,100.000=75.032,101.000=789789802496.000,102.000=300.140,158.750=789789802496.000,166.750=300.140,173.000=2400.960,185.000=300.140,193.000=789789802496.000,201.000=300.140,217.000=789789802496.000,225.000=300.140,241.000=789789802496.000,249.000=300.140,265.000=789789802496.000,277.000=300.140,289.000=789789802496.000,301.000=300.140,305.000=789789802496.000,317.000=300.140,321.000=789789802496.000,333.000=300.140,337.000=789789802496.000,349.000=300.140,353.000=789789802496.000,365.000=300.140,369.000=789789802496.000,381.000=300.140,382.000=789789802496.000,390.000=300.140,391.000=789789802496.000,403.000=300.140,441.500=1200.640,506.000=150.060,514.000=300.140,530.000=3789789855744.000,534.000=320.000,567.000=789789802496.000,579.000=340.000,611.500=360.000,643.500=380.000,675.000=4000.000,950.000=150.060,968.063=-9000.080;
#STOPS:102.000=0.600
,177.000=0.040
,534.000=0.520
;
#BGCHANGES:0.000=TSUPSEUDOGAMUSH-hs.png=0.700=1=0=1,
56.000=TSUPSEUDOGAMUSH-bg.png=1.000=0=0=1,
57.000=TSUPSEUDOGAMUSH-hs.png=1.000=0=0=1,
58.000=TSUPSEUDOGAMUSH-bg.png=1.000=0=0=1,
59.000=TSUPSEUDOGAMUSH-hs.png=1.000=0=0=1,
72.000=TSUPSEUDOGAMUSH-bg.png=1.000=0=0=1,
73.000=TSUPSEUDOGAMUSH-hs.png=1.000=0=0=1,
74.000=TSUPSEUDOGAMUSH-bg.png=1.000=0=0=1,
75.000=TSUPSEUDOGAMUSH-hs.png=1.000=0=0=1,
88.000=TSUPSEUDOGAMUSH-bg.png=1.000=0=0=1,
90.000=TSUPSEUDOGAMUSH-hs.png=1.000=0=0=1,
91.000=TSUPSEUDOGAMUSH-bg.png=1.000=0=0=1,
92.000=TSUPSEUDOGAMUSH-hs.png=1.000=0=0=1,
100.000=TSUPSEUDOGAMUSH-Is.PNG=1.000=0=0=1,
103.000=TSUPSEUDOGAMUSH-hs.png=1.000=0=0=1,
115.000=TSUPSEUDOGAMUSH-bg.png=1.000=0=0=1,
116.000=TSUPSEUDOGAMUSH-hs.png=1.000=0=0=1,
117.000=TSUPSEUDOGAMUSH-Is.PNG=1.000=0=0=1,
118.000=TSUPSEUDOGAMUSH-hs.png=1.000=0=0=1,
131.000=TSUPSEUDOGAMUSH-bg.png=1.000=0=0=1,
132.000=TSUPSEUDOGAMUSH-hs.png=1.000=0=0=1,
133.000=TSUPSEUDOGAMUSH-Is.PNG=1.000=0=0=1,
134.000=TSUPSEUDOGAMUSH-hs.png=1.000=0=0=1,
147.000=TSUPSEUDOGAMUSH-bg.png=1.000=0=0=1,
148.000=TSUPSEUDOGAMUSH-hs.png=1.000=0=0=1,
149.000=TSUPSEUDOGAMUSH-Is.PNG=1.000=0=0=1,
150.000=TSUPSEUDOGAMUSH-hs.png=1.000=0=0=1,
167.000=TSUPSEUDOGAMUSH-Is.PNG=1.000=0=0=1,
173.000=TSUPSEUDOGAMUSH-bg.png=1.000=0=0=1,
185.000=TSUPSEUDOGAMUSH-hs.png=1.000=0=0=1,
201.500=TSUPSEUDOGAMUSH-Is.PNG=1.000=0=0=1,
209.500=TSUPSEUDOGAMUSH-hs.png=1.000=0=0=1,
217.500=TSUPSEUDOGAMUSH-Is.PNG=1.000=0=0=1,
233.500=TSUPSEUDOGAMUSH-hs.png=1.000=0=0=1,
249.500=TSUPSEUDOGAMUSH-Is.PNG=1.000=0=0=1,
257.500=TSUPSEUDOGAMUSH-hs.png=1.000=0=0=1,
277.500=TSUPSEUDOGAMUSH-Is.PNG=1.000=0=0=1,
285.500=TSUPSEUDOGAMUSH-hs.png=1.000=0=0=1,
301.500=TSUPSEUDOGAMUSH-Is.PNG=1.000=0=0=1,
317.500=TSUPSEUDOGAMUSH-hs.png=1.000=0=0=1,
333.500=TSUPSEUDOGAMUSH-Is.PNG=1.000=0=0=1,
349.500=TSUPSEUDOGAMUSH-hs.png=1.000=0=0=1,
365.500=TSUPSEUDOGAMUSH-Is.PNG=1.000=0=0=1,
381.500=TSUPSEUDOGAMUSH-hs.png=1.000=0=0=1,
405.500=TSUPSEUDOGAMUSH-hs.png=1.000=0=0=1,
441.500=TSUPSEUDOGAMUSH-Is.PNG=1.000=0=0=1,
506.000=TSUPSEUDOGAMUSH-bg.png=1.000=0=0=1,
513.000=TSUPSEUDOGAMUSH-Is.PNG=1.000=0=0=1,
514.000=TSUPSEUDOGAMUSH-hs.png=1.000=0=0=1,
522.000=TSUPSEUDOGAMUSH-Is.PNG=1.000=0=0=1,
522.667=TSUPSEUDOGAMUSH-hs.png=1.000=0=0=1,
523.333=TSUPSEUDOGAMUSH-Is.PNG=1.000=0=0=1,
524.000=TSUPSEUDOGAMUSH-hs.png=1.000=0=0=1,
524.667=TSUPSEUDOGAMUSH-Is.PNG=1.000=0=0=1,
525.333=TSUPSEUDOGAMUSH-hs.png=1.000=0=0=1,
526.000=TSUPSEUDOGAMUSH-Is.PNG=1.000=0=0=1,
526.667=TSUPSEUDOGAMUSH-hs.png=1.000=0=0=1,
527.333=TSUPSEUDOGAMUSH-Is.PNG=1.000=0=0=1,
528.000=TSUPSEUDOGAMUSH-hs.png=1.000=0=0=1,
528.667=TSUPSEUDOGAMUSH-Is.PNG=1.000=0=0=1,
529.333=TSUPSEUDOGAMUSH-hs.png=1.000=0=0=1,
534.000=TSUPSEUDOGAMUSH-Is.PNG=1.000=0=0=1,
535.500=TSUPSEUDOGAMUSH-bg.png=1.000=0=0=1,
579.500=TSUPSEUDOGAMUSH-hs.png=1.000=0=0=1,
643.500=TSUPSEUDOGAMUSH-bg.png=1.000=0=0=1,
645.500=TSUPSEUDOGAMUSH-hs.png=1.000=0=0=1,
647.500=TSUPSEUDOGAMUSH-bg.png=1.000=0=0=1,
649.500=TSUPSEUDOGAMUSH-hs.png=1.000=0=0=1,
651.500=TSUPSEUDOGAMUSH-bg.png=1.000=0=0=1,
653.500=TSUPSEUDOGAMUSH-hs.png=1.000=0=0=1,
655.500=TSUPSEUDOGAMUSH-bg.png=1.000=0=0=1,
657.500=TSUPSEUDOGAMUSH-hs.png=1.000=0=0=1,
658.500=TSUPSEUDOGAMUSH-Is.PNG=1.000=0=0=1,
659.500=TSUPSEUDOGAMUSH-hs.png=1.000=0=0=1,
661.000=TSUPSEUDOGAMUSH-Is.PNG=1.000=0=0=1,
662.000=TSUPSEUDOGAMUSH-hs.png=1.000=0=0=1,
663.000=TSUPSEUDOGAMUSH-Is.PNG=1.000=0=0=1,
664.000=TSUPSEUDOGAMUSH-hs.png=1.000=0=0=1,
665.000=TSUPSEUDOGAMUSH-Is.PNG=1.000=0=0=1,
666.000=TSUPSEUDOGAMUSH-hs.png=1.000=0=0=1,
667.000=TSUPSEUDOGAMUSH-Is.PNG=1.000=0=0=1,
668.000=TSUPSEUDOGAMUSH-hs.png=1.000=0=0=1,
669.000=TSUPSEUDOGAMUSH-Is.PNG=1.000=0=0=1,
670.000=TSUPSEUDOGAMUSH-hs.png=1.000=0=0=1,
671.000=TSUPSEUDOGAMUSH-Is.PNG=1.000=0=0=1,
672.000=TSUPSEUDOGAMUSH-hs.png=1.000=0=0=1,
673.000=TSUPSEUDOGAMUSH-Is.PNG=1.000=0=0=1,
674.000=TSUPSEUDOGAMUSH-hs.png=1.000=0=0=1,
675.000=TSUPSEUDOGAMUSH-Is.PNG=1.000=0=0=1,
950.000=TSUPSEUDOGAMUSH-bg.png=1.000=0=0=1,
962.500=TSUPSEUDOGAMUSH-hs.png=1.000=1=0=1,
967.000=TSUPSEUDOGAMUSH-Is.PNG=1.000=0=0=1,
967.500=TSUPSEUDOGAMUSH-hs.png=1.000=0=0=1,
968.000=TSUPSEUDOGAMUSH-Is.PNG=1.000=0=0=1,
99999=-nosongbg-=1.000=0=0=0 // don't automatically add -songbackground-
;
// cache tags:
#FIRSTBEAT:16.000;
#LASTBEAT:974.938;
#SONGFILENAME:Songs/New Folder/TSUPSEUDOGAMUSH/TSUPSEUDOGAMUSH.sm;
#HASMUSIC:1;
#HASBANNER:1;
#MUSICLENGTH:112.151;
// end cache tags

//---------------dance-single - Tricks and Traps----------------
#NOTES:
     dance-single:
     Tricks and Traps:
     Challenge:
     12:
     1.000,1.000,1.000,0.481,0.785,664.000,194.000,54.000,1348.000,3.000:
0000
0000
0000
0000
,
0000
0000
0000
0000
,
0000
0000
0000
0000
,
0000
0000
0000
0000
,
1001
0000
0110
0000
1001
0001
0001
0000
,
0110
0000
0000
0000
1010
0000
0000
0000
0101
0000
0010
0100
1000
0000
1000
0000
,
1100
0000
1010
0000
,
0101
0000
0000
0000
0110
0000
0000
0000
0220
0000
0000
0000
0000
0330
0000
0000
,
M1MM
1MMM
M1MM
1MMM
MM1M
MMM1
MM1M
MMM1
,
MM1M
1MMM
MM1M
1MMM
MM1M
MMM1
MM1M
MMM1
,
0000
0000
0000
0000
,
0100
1000
0100
1000
0010
0001
0010
0001
,
0010
1000
0010
1000
0010
0001
0010
0001
,
1000
0001
1000
0001
0100
0010
0001
0010
,
1100
0011
0110
0011
,
1000
0100
0010
0001
0100
0010
0100
0010
,
1000
0100
0010
0001
0100
0010
0100
0010
,
0001
0010
0100
1000
0100
0010
1000
0010
,
1001
1001
0110
1001
,
0010
0000
0010
0000
1000
0100
0010
0001
,
0100
0000
0100
0000
0001
0010
0100
1000
,
0001
0000
0001
0000
1000
0010
0100
0001
,
0011
0101
1001
1010
,
1000
0010
0001
0010
1000
0000
1000
0000
,
1000
0100
0010
0001
0010
0000
0100
0000
,
2001
0000
0000
0000
0000
0000
0000
0000
000M
0000
0000
0000
0000
0000
0000
0000
0000
0000
0000
0000
0000
0000
0000
0000
0000
0000
0000
0000
0000
0000
0000
0000
000M
0000
0000
0000
0000
0000
0000
0000
000M
0000
0000
0000
0000
0000
0000
0000
000M
0000
0000
0000
0000
0000
0000
0000
000M
0000
0000
0000
0000
0000
0000
0000
0000
0000
0000
0000
0000
0000
0000
0000
0000
0000
0000
0000
0000
0000
0000
0000
0000
0000
0000
0000
0000
0000
0000
000M
0000
0000
000M
0000
0000
000M
0000
0000
0000
0000
0000
3000
0000
0000
0000
0000
0000
0000
0000
0000
0000
0000
0000
0000
0000
0000
0000
0000
0000
0000
0000
0000
M000
0000
0000
0000
0000
0000
0000
0000
0000
M00M
0000
0000
M00M
0000
0000
M00M
0000
0000
0000
0000
0000
M00M
0000
0000
M01M
0000
0000
M00M
0000
0000
M00M
0000
0000
0000
0000
0000
0000
0000
0000
0000
0000
0000
0000
0000
0000
0000
0000
0000
0100
0000
0000
0000
0000
0000
0000
0000
0000
0000
0000
0000
0000
0000
0000
0000
0000
0000
0000
0000
0000
0000
0000
0000
,
0010
0100
0001
1000
0001
1000
0001
0100
,
0001
0100
1000
0010
0100
0001
0010
0100
,
1000
0100
0010
0001
0100
0010
1001
0000
,
1001
0000
0110
0000
1001
0000
0100
0010
,
0001
0100
0001
0010
1000
0010
1000
0100
,
0010
0100
0010
0001
0010
0001
0010
1000
,
0100
1000
0100
0010
0100
0010
1010
0000
,
1001
0000
0101
0000
0011
0000
0010
0100
,
1000
0001
0010
1000
0010
0100
0010
0100
,
1000
0001
0100
0010
0001
0100
0010
1000
,
0001
0010
0001
0100
0010
1000
0110
0000
,
0101
0000
0110
0000
1100
0000
0100
0010
,
0001
1000
0100
1000
0001
0010
0100
0010
,
0001
0000
0000
0000
0000
0000
0000
0000
1000
0000
0000
0000
0000
0000
0000
0000
0010
0000
0000
0000
0000
0000
0000
0000
0100
0000
0000
0000
0000
0000
0000
0000
0001
0000
0000
0000
0000
0000
0000
0000
0010
0000
0000
0000
0000
0000
0000
0000
0000
0200
0300
0000
0000
0000
0000
0000
0000
1000
0000
0000
0000
0000
0000
0000
,
0200
0300
0000
0000
0000
0000
0000
0000
0000
0010
0000
0000
0000
0000
0000
0000
0002
0003
0000
0000
0000
0000
0000
0000
0000
0010
0000
0000
0000
0000
0000
0000
0200
0300
0000
0000
0000
0000
0000
0000
0000
1000
0000
0000
0000
0000
0000
0000
0200
0300
0000
0000
0000
0000
0000
0000
0000
0010
0000
0000
0000
0000
0000
0000
,
0020
0030
0000
0000
0000
0000
0000
0001
0000
0000
0000
0000
0000
0000
0000
0000
0220
0330
0000
0000
0000
0000
0000
0000
0000
0000
0000
0000
0000
0000
0000
0000
0000
0000
0000
0000
0000
0000
0000
0000
0000
0000
0000
0000
0000
0000
0000
0000
M1MM
0000
0000
0000
0000
0000
0000
0000
0000
0000
0000
0000
0000
0000
0000
0000
,
M1MM
MMM1
M1MM
M1MM
,
MM1M
0000
0M2M
0M00
MM00
0M00
0M0M
0M00
,
MM00
0M00
0M0M
0M00
MM00
0000
0M0M
M000
,
0M00
0000
0M0M
M000
0M00
0000
0M0M
MM00
,
0M00
MM0M
0M3M
1000
0100
0010
0001
0010
,
0100
1000
0100
0011
0000
1100
0000
0110
,
0000
000M
000M
000M
00M0
0M00
M000
0M00
,
00M0
000M
00M0
MM00
0000
00MM
0000
M00M
,
0000
000M
000M
0001
0010
0100
1000
0100
,
0010
0001
0010
1100
0000
0011
0000
1001
,
0000
0000
0000
0100
1000
0100
1000
0001
,
0010
0001
0010
0100
0000
0100
0000
0110
,
0000
0000
0000
0000
0000
0000
0000
0000
0000
0000
0000
0000
0000
0000
0000
0000
0000
0000
0000
0000
0000
0000
0000
0000
0100
0210
0300
0000
0000
0000
0000
0000
1MM0
0000
0000
0000
0000
0000
0000
0000
01M0
0000
0000
0000
0000
0000
0000
0000
1MM0
0000
0000
0000
0000
0000
0000
0000
0MM1
0000
0000
0000
0000
0000
0000
0000
,
0M10
0MM1
0M10
01M0
0MM0
01M0
0MM0
0110
,
0000
0000
0000
0220
M000
0000
M000
000M
,
0000
000M
0000
0000
0000
0330
0000
0000
,
0000
0000
0000
1000
0200
0310
0002
1003
,
0200
0310
0002
1003
0000
0010
0000
1000
,
0000
0000
0000
1000
0100
0M10
0001
100M
,
0100
0M10
0001
100M
0000
0010
0000
1000
,
0000
0000
0000
1000
0M00
0010
000M
1000
,
0M00
0010
000M
1000
0000
0010
0000
1000
,
0000
0000
0000
1000
0010
1000
0000
0001
,
0100
0001
0000
0110
0000
1001
0000
0110
,
0000
0000
0000
0000
0000
0000
0000
0000
0000
0000
0000
0000
0000
0000
0000
0000
0000
0000
0000
0000
0000
0000
0000
1001
M00M
0000
0000
0000
0000
0000
0000
0000
0000
0000
0000
0000
0000
0000
0000
0000
0000
0000
0000
0000
0000
0000
0000
0000
0100
0000
0000
0000
0000
0000
0000
0000
0010
0000
0000
0000
0000
0000
0000
0000
,
0000
1001
0000
0000
0010
0100
0000
1001
,
0000
1001
0000
0000
0000
0000
0000
0000
,
0000
0000
0000
0000
0000
0000
0000
M00M
M00M
M00M
0000
0000
0000
0000
0000
0000
0000
0000
0000
0000
0000
0000
0000
0000
0100
0000
0000
0000
0010
0000
0000
0000
,
0000
1001
0000
0000
0010
0100
0000
1001
,
0000
1001
0000
0210
0000
0300
0000
0102
,
0000
0003
0000
0000
0000
0000
1001
0000
0000
0000
0000
0000
0000
0000
1010
0000
,
0000
0000
0000
0110
0000
0000
0000
1001
,
0000
0000
0000
0000
0000
0000
0000
MMMM
,
0000
0000
MMMM
0000
0000
0000
2MM1
0000
0000
3000
MMMM
0000
0000
0000
1M2M
0000
,
0000
0030
MMMM
0000
0000
0000
M11M
0000
0000
0000
MMMM
0000
0000
0000
M11M
0000
,
0000
MMMM
0000
1MM1
0000
MMMM
0000
1MM1
,
0000
MMMM
0000
0000
0000
0000
0000
0000
,
0000
0000
0000
0000
0000
0000
0120
0000
0000
0030
0000
0000
0000
0000
0210
0000
,
0000
0300
0000
0000
0000
0000
0011
0000
0000
0000
0000
0000
0000
0000
1001
0000
,
0000
0000
0000
1100
0000
0000
0000
1001
,
0000
0000
0000
0000
0000
0000
0000
MMMM
,
0000
0000
MMMM
0000
0000
0000
MM21
0000
0000
0030
MMMM
0000
0000
0000
2MM1
0000
,
0000
3000
MMMM
0000
0000
0000
MM11
0000
0000
0000
MMMM
0000
0000
0000
1MM1
0000
,
0000
MMMM
0000
11MM
0000
MMMM
0000
0000
,
0000
0000
0000
0000
,
0000
0000
0000
0000
0000
0000
0021
0000
0000
0030
0000
0000
0000
0000
2001
0000
,
0000
3000
0000
0000
0000
0000
1100
0000
0000
0000
0000
0000
0000
0000
1001
0000
,
0000
0000
0000
1100
0000
0000
0000
1001
,
0000
0000
0000
0000
0000
0000
0000
MMMM
,
0000
0000
MMMM
0000
0000
0000
21MM
0000
0000
3000
MMMM
0000
0000
0000
1MM2
0000
,
0000
0003
MMMM
0000
0000
0000
11MM
0000
0000
0000
MMMM
0000
0000
0000
MMMM
0000
,
0000
MMMM
0000
MMMM
0000
MMMM
0000
MMMM
,
0000
MMMM
0000
MMMM
0000
MMMM
0000
MMMM
,
0000
MMMM
0000
11MM
0000
MMMM
0000
MMMM
,
0000
MMMM
0000
MMMM
0000
MMMM
0000
MMMM
,
0000
MMMM
0000
MMMM
0000
MMMM
0000
2MM2
,
0000
3MM3
0000
MMMM
0000
MMMM
0000
MMMM
,
0000
MMMM
0000
MMMM
0000
MMMM
0000
MMMM
,
0000
MMMM
0000
MMMM
0000
MMMM
0000
MMMM
,
0000
MMMM
0000
2MM2
0000
0000
0000
0000
,
0000
3003
0000
0110
0000
0110
0000
1000
,
0100
0010
0000
0001
0010
0100
0000
1000
,
0001
1000
0000
0110
0000
0110
0000
0100
,
0001
0100
0000
0100
1000
0100
0000
0100
,
0010
0100
0000
1000
0100
0010
0001
0100
,
0010
0001
0100
1000
0001
0010
0001
0110
,
0000
0110
0000
1000
0001
0100
0001
1000
,
0010
0100
0010
1000
0100
0010
0001
0110
,
0000
0110
0000
2000
0000
0000
0000
0000
,
0000
0000
0000
0000
,
0000
0000
0000
0000
,
0000
0000
0000
0000
,
0000
0000
0000
0000
0000
0002
0000
0000
0000
0000
0000
0000
0000
0000
0000
0000
,
0000
0000
0000
0000
,
0000
3000
0000
0000
0000
0000
0000
0000
,
0000
0000
0000
0000
,
0200
0000
0000
0000
0000
0000
0000
0003
0000
0000
0000
0000
0000
0000
0000
0000
,
0000
0000
0000
0000
,
0000
0000
0000
0000
0000
0020
0000
0000
0000
0000
0300
0000
0000
0000
0000
0000
,
0000
0000
0000
0000
,
0000
0000
0000
0000
0000
0000
0000
2000
0000
0000
0000
0000
0030
0000
0000
0000
,
0000
0000
0000
0000
,
0000
0000
0000
0000
0000
0000
0000
0000
0002
0000
0000
0000
0000
0000
0000
3000
,
0000
0000
0000
0000
,
0000
0000
0000
0000
0000
0000
0000
0000
1003
0100
0010
0100
1000
0000
1000
0000
,
0001
0010
0100
0010
0001
0000
0001
0000
1000
0100
0010
0000
1000
0010
0100
0000
,
1000
0000
0001
0000
1000
0000
0100
0000
0001
0010
0100
1000
0001
0010
0100
1000
0002
0000
0000
0000
0000
0000
0000
0000
0200
0000
0000
0000
0000
0000
0000
0000
,
0323
2000
3230
0020
,
2330
0000
0000
0000
0000
0000
0002
0000
0000
3003
0000
0000
1000
0000
0000
0000
0100
0000
0000
0000
1000
0000
0000
0000
,
0001
0000
0010
0000
0100
0000
0001
0000
1000
0000
0010
0000
,
1000
0000
0010
0000
0100
0000
0020
0000
0000
0000
0000
0000
,
0000
0000
0000
0000
0000
0000
0000
0000
0000
0000
0000
0000
0000
0000
0000
0000
0000
0000
0000
0000
0000
0000
0000
0000
0000
0000
0000
0000
0000
0000
0000
0000
0000
0000
0030
0000
MM0M
0000
MM0M
0000
MMMM
00M0
MMMM
00M0
MMM0
0000
MMM0
0000
MMM0
0000
0000
0000
0000
0000
0000
0000
0001
0000
0000
0000
0000
0000
0000
0000
,
0010
0100
1000
0100
0010
0100
0001
1000
,
0100
0010
0001
0010
0100
0010
1000
0001
,
0010
0100
0001
0100
0010
0001
0010
M001
,
0000
M101
0000
M110
0000
1001
0000
1000
,
0010
1000
0010
0001
0010
0100
0001
1000
,
0010
0100
0001
0100
0010
1000
0100
0010
,
0001
0010
1000
0001
1000
0001
0100
0010
,
0000
10M1
0000
01M1
0000
11M0
0000
M0M0
,
0000
M0M0
0000
0MM0
0000
0MM0
0000
0M0M
,
0000
0M0M
0000
M00M
0000
M00M
0000
M0M0
,
0000
M0M0
0000
0000
0000
0000
0000
1010
,
0000
1010
0000
0110
0000
0110
0000
0101
,
0000
0101
0000
1001
0000
1001
0000
1010
,
0000
1010
0000
0110
0000
0110
0000
0101
,
0000
1001
0000
1100
0000
0101
0000
1100
,
0000
0101
0000
1010
0000
1001
0000
0110
,
0000
0101
0000
1001
0000
0110
0000
0101
,
0000
1010
0000
0101
0000
1100
0000
1010
,
0000
0011
0000
0110
0000
1001
0000
M11M
,
0000
1010
0000
0101
0000
11MM
0000
0011
,
0000
1M01
0000
0110
0000
1MM1
0000
1010
,
0000
M101
0000
1010
0000
110M
0000
1001
,
0000
01M1
0000
0011
0000
1MM1
0000
0110
,
0000
M110
0000
0101
0000
01M1
0000
1010
,
0000
1M10
0000
0011
0000
01M1
0000
1001
,
0000
011M
0000
1010
0000
0M11
0000
1010
,
0000
1M01
0000
0011
0000
1M10
0000
M11M
,
0000
1MM1
0000
M1M1
0000
MM11
0000
11MM
,
0000
M11M
0000
1MM1
0000
M1M1
0000
MM11
,
0000
11MM
0000
M11M
0000
1MM1
0000
M1M1
,
0000
MM11
0000
11MM
0000
M11M
0000
1000
,
0100
0010
0M01
1000
001M
0100
M001
0010
,
0100
M010
0001
0010
0100
0010
M001
0100
,
0010
M001
0010
1000
010M
0010
M001
0100
,
0010
100M
0010
0100
1000
0100
2002
0000
,
0MM0
0MM0
0MM0
0MM0
,
0MM0
0MM0
0MM0
0MM0
,
0MM0
0MM0
0MM0
0MM0
,
0MM0
0MM0
0MM0
0MM0
,
0MM0
0000
0MM0
0000
,
0MM0
0000
0MM0
0000
,
0MM0
0000
0MM0
0000
,
0MM0
0000
0MM0
0000
,
0MM0
0000
0MM0
0000
,
0MM0
0000
0MM0
0000
,
0MM0
0000
0MM0
0000
,
0MM0
0000
0MM0
0000
,
0MM0
0000
0MM0
0000
,
0MM0
0000
0MM0
0000
,
0MM0
0000
0MM0
0000
,
0MM0
0000
0MM0
0000
,
0MM0
0000
0MM0
0000
,
0MM0
0000
0MM0
0000
,
0MM0
0000
0MM0
0000
,
0MM0
0000
0MM0
0000
,
0MM0
0000
0MM0
0000
,
0MM0
0000
0MM0
0000
,
0MM0
0000
0MM0
0000
,
0MM0
0000
0MM0
0000
,
0MM0
0000
0MM0
0000
,
0MM0
0000
0MM0
0000
,
0MM0
0000
0MM0
0000
,
0MM0
0000
0MM0
0000
,
0MM0
0000
0MM0
0000
,
0MM0
0000
0MM0
0000
,
0MM0
0000
0MM0
0000
,
0MM0
0000
0MM0
0000
,
0MM0
0000
0MM0
0000
,
0MM0
0000
0MM0
0000
,
0MM0
0000
0MM0
0000
,
0MM0
0000
0MM0
0000
,
0MM0
0000
0MM0
0000
,
0MM0
0000
0MM0
0000
,
0MM0
0000
0MM0
0000
,
0MM0
0000
0MM0
0000
,
0MM0
0000
0MM0
0000
,
0MM0
0000
0MM0
0000
,
0MM0
0000
0MM0
0000
,
0MM0
0000
0MM0
0000
,
0MM0
0000
0MM0
0000
,
0MM0
0000
0MM0
0000
,
0MM0
0000
0MM0
0000
,
0MM0
0000
0MM0
0000
,
0MM0
0000
0MM0
0000
,
0MM0
0000
0MM0
0000
,
0MM0
0000
0MM0
0000
,
0MM0
0000
0MM0
0000
,
0MM0
0000
0MM0
0000
,
0MM0
0000
0MM0
0000
,
0MM0
0000
0MM0
0000
,
0MM0
0000
0MM0
0000
,
0MM0
0000
0MM0
0000
,
0MM0
0000
0MM0
0000
,
0MM0
0000
0MM0
0000
,
0MM0
0000
0MM0
0000
,
0MM0
0000
0MM0
0000
,
0MM0
0000
0MM0
0000
,
0MM0
0000
0MM0
0000
,
0MM0
0000
0MM0
0000
,
0MM0
0000
0MM0
0000
,
0MM0
0000
0MM0
0000
,
0MM0
0000
0MM0
0000
,
0MM0
0000
0MM0
0000
,
0MM0
0000
0000
0000
0000
0000
0000
0000
0000
0000
0000
0000
0000
0000
0000
0000
0000
0000
0000
0000
0000
0000
0000
0000
0000
0000
0000
0000
0000
0000
0000
0000
0000
0000
0000
0000
0000
0000
0000
0000
0000
0000
0000
0000
0000
0000
0000
0000
0000
0000
0000
0000
0000
0000
0000
0000
0000
0000
0000
0000
0000
0000
0000
0000
0000
0000
0000
0000
0000
0000
0000
0000
0000
0000
0000
0000
0000
0000
0000
0000
0000
0000
0000
0000
0000
0000
0000
0000
0000
0000
0000
0000
0000
0000
0000
0000
3MM3
0000
0000
0000
0000
0000
0000
0000
0000
0000
0000
0000
0000
0000
0000
0000
0000
0000
0000
0000
0000
0000
0000
0000
0000
0000
0000
0000
0000
0000
0000
0000
0MM0
0000
0000
0000
0000
0000
0000
0000
0MM0
0000
M00M
0000
0000
M00M
0000
0000
M00M
0000
0000
0000
0000
0000
0000
0000
0MM0
0000
0000
0000
0000
0000
0000
0000
0000
0000
0000
0000
0000
0000
0000
0000
0000
0000
0000
0000
0000
0000
0000
0000
0000
0000
0000
0000
0000
0000
0000
0000
0000
0000
0000
0000
0000
0000
0000
0000
,
MMMM
0000
0000
0000
MMMM
0000
0000
0000
MMMM
0000
0000
MMMM
00M0
MM0M
00M0
MM00
,
0M00
00M0
1M0M
00MM
00MM
00MM
11MM
0000
00M0
MMM0
00M1
MM00
MM00
MM00
MM11
MM00
,
MM0M
0000
M1MM
00MM
0000
M000
M11M
M00M
M00M
MMM0
MMM1
MMM0
MMMM
0MM0
2MM2
0MM0
,
0MM0
0000
0000
0000
0000
0000
0000
0000
0000
0000
0000
0000
0MM0
0000
0000
0000
0000
0000
0000
0000
0000
0000
0000
0000
0MM0
0000
0000
0000
0000
0000
0000
0000
0000
0000
0000
0000
0MM0
0000
0000
0000
0000
0000
0000
0000
0000
0000
0000
0000
0MM0
0000
0000
0000
0000
0000
0000
0000
0000
0000
0000
0000
0MM0
0000
0000
0000
0000
0000
0000
0000
0000
0000
0000
0000
0MM0
0000
0000
0000
0000
0000
0000
0000
0000
0000
0000
0000
0000
0000
0000
0000
0000
0000
0000
0000
0000
0000
0000
0000
3003
0000
0000
0000
0000
0000
0000
0000
00M0
0000
0000
0000
0000
0000
0000
0000
0000
0000
M00M
0000
0000
0000
0000
0000
0000
0000
0000
0000
0000
0000
0000
0000
0000
0000
0000
0000
0000
0000
0000
0000
0000
0000
0000
0000
0000
0000
0000
0000
1001
0000
0000
0000
0000
0000
0000
0000
0000
0000
0000
0000
0000
0000
0000
0000
0000
0000
0000
0000
0000
0000
0000
0000
0110
0000
0000
0000
0000
0000
0000
0000
0000
0000
0000
0000
0000
0000
0000
0000
0000
0000
0000
0000
0000
0000
0000
0000
,
0000
0000
0000
0101
0000
0000
0000
0000
0000
MMMM
MMMM
MMMM
MMMM
MMMM
MMMM
MMMM
MMMM
MMMM
MMMM
MMMM
MMMM
MMMM
MMMM
MMMM
MMMM
MMMM
MMMM
MMMM
MMMM
MMMM
MMMM
MMMM
MMMM
MMMM
MMMM
MMMM
MMMM
MMMM
MMMM
MMMM
MMMM
MMMM
MMMM
MMMM
MMMM
MMMM
MMMM
MMMM
MMMM
MMMM
MMMM
MMMM
MMMM
MMMM
MMMM
MMMM
MMMM
MMMM
MMMM
MMMM
MMMM
MMMM
MMMM
MMMM
,
MMMM
MMMM
MMMM
MMMM
MMMM
MMMM
MMMM
MMMM
MMMM
MMMM
MMMM
MMMM
MMMM
MMMM
MMMM
MMMM
MMMM
MMMM
MMMM
MMMM
MMMM
MMMM
MMMM
MMMM
MMMM
MMMM
MMMM
MMMM
MMMM
MMMM
MMMM
MMMM
MMMM
MMMM
MMMM
MMMM
MMMM
MMMM
MMMM
MMMM
MMMM
MMMM
MMMM
MMMM
MMMM
MMMM
MMMM
MMMM
0000
0000
0000
0000
0000
0000
0000
0000
0000
0000
0000
0000
0000
0000
0000
0000
;
